<?xml version="1.0" standalone="no"?>
<!DOCTYPE svg PUBLIC "-//W3C//DTD SVG 1.1//EN" "http://www.w3.org/Graphics/SVG/1.1/DTD/svg11.dtd" >
<svg xmlns="http://www.w3.org/2000/svg">
<metadata>
<json>
<![CDATA[
{
	"fontFamily": "360-image",
	"description": "Font generated by IcoMoon.",
	"majorVersion": 1,
	"minorVersion": 1,
	"version": "Version 1.1",
	"fontId": "360-image",
	"psName": "360-image",
	"subFamily": "Regular",
	"fullName": "360-image"
}
]]>
</json>
</metadata>
<defs>
<font id="360-image" horiz-adv-x="1024">
<font-face units-per-em="1024" ascent="960" descent="-64" />
<missing-glyph horiz-adv-x="1024" />
<glyph unicode="&#x20;" horiz-adv-x="512" d="" />
<glyph unicode="&#xe900;" glyph-name="nosceneicon" data-tags="no scene icon" d="M831.521 380.471c-106.013 0-192.48-86.468-192.48-192.48s86.468-192.48 192.48-192.48 192.48 86.468 192.48 192.48-86.468 192.48-192.48 192.48zM932.204 288.672c50.934-50.934 54.487-128.517 15.991-183.005l-198.995 198.995c55.080 38.495 132.663 34.943 183.005-15.991zM730.247 86.716c-50.934 50.934-54.487 128.517-15.991 183.005l198.995-198.995c-54.487-37.905-132.071-34.35-183.005 15.991zM445.967 178.513c-161.683 0-337.582 32.573-393.845 43.826v23.69l142.139 134.44 104.828-104.828c6.516-6.516 14.805-9.476 23.69-9.476v0c8.883 0 17.768 4.146 23.69 10.661l307.376 321.59 100.090-110.157c20.137 5.33 40.864 8.292 62.186 9.476l-136.216 150.431c-6.516 6.516-14.805 10.661-24.283 10.661s-18.36-3.553-24.283-10.661l-308.562-322.182-104.236 104.236c-13.029 13.029-33.166 13.029-46.787 0.592l-119.635-113.12v451.293c53.303 10.068 214.393 36.719 383.184 36.719 196.626 0 356.533-26.651 409.244-36.126v-272.433c17.768-0.592 34.943-2.961 51.526-6.516v298.493c0 13.621-10.068 25.467-23.69 27.836-18.36 3.553-198.995 40.864-437.080 40.864-204.918 0-392.66-37.312-411.613-40.864-13.621-2.369-23.69-13.621-23.69-27.836v-586.918c0-14.215 10.661-25.467 23.69-27.836 20.137-4.146 227.423-48.563 422.273-48.563 27.836 0 55.080 0.592 82.323 1.777-3.553 16.583-5.33 34.35-5.33 52.117-25.467-0.592-51.526-1.184-76.992-1.184zM273.625 734.634c-58.040 0-105.42-47.381-105.42-105.42s47.381-105.42 105.42-105.42c58.040 0 105.42 47.381 105.42 105.42s-47.381 105.42-105.42 105.42zM273.625 575.319c-29.613 0-53.303 23.69-53.303 53.303s24.283 53.303 53.303 53.303c29.613 0 53.303-23.69 53.303-53.303s-23.69-53.303-53.303-53.303z" />
<glyph unicode="&#xe901;" glyph-name="set-angle" data-tags="set-angle" d="M512 654.239c-125.737 0-227.571-101.834-227.571-227.571s101.834-227.571 227.571-227.571 227.571 101.834 227.571 227.571-101.834 227.571-227.571 227.571zM113.857 255.953h-113.856v-227.571c0-62.515 51.2-113.715 113.715-113.715h227.571v113.715h-227.43v227.571zM113.857 824.811h227.571v113.856h-227.571c-62.657 0-113.856-51.2-113.856-113.856v-227.571h113.715v227.571zM910.143 938.668h-227.43v-113.715h227.571v-227.571h113.715v227.43c0 62.657-51.2 113.856-113.856 113.856zM910.143 28.524h-227.43v-113.856h227.571c62.515 0 113.715 51.2 113.715 113.715v227.571h-113.715v-227.43z" />
<glyph unicode="&#xe902;" glyph-name="360image" data-tags="360image" d="M511.999 759.467c-281.599 0-511.999-112.64-511.999-256 0-112.639 148.48-209.92 358.399-245.76v-163.841l204.799 204.799-204.799 204.799v-138.239c-163.841 30.72-256 97.28-256 138.239 0 56.32 153.6 153.6 409.6 153.6s409.6-97.28 409.6-153.6c0-35.839-76.8-97.28-204.799-128v-107.52c179.2 40.961 307.2 128 307.2 235.519 0 143.36-230.4 256-511.999 256z" />
<glyph unicode="&#xe903;" glyph-name="back" data-tags="back" d="M1024 483.556h-806.116l203.663 204.231-80.213 80.213-341.333-341.333 341.333-341.333 80.213 80.213-203.663 204.231h806.116z" />
<glyph unicode="&#xe904;" glyph-name="mute" data-tags="mute" d="M767.998 426.666c0 100.693-58.027 187.164-142.222 229.262v-125.724l139.377-139.377c1.707 11.377 2.844 23.324 2.844 35.84zM910.221 426.666c0-53.476-11.377-103.537-30.72-150.186l85.903-85.903c37.547 70.543 58.596 150.756 58.596 236.089 0 243.484-170.097 447.146-398.222 498.915v-117.191c164.409-48.924 284.444-201.386 284.444-381.723zM72.249 938.665l-72.249-72.249 269.084-269.084h-269.084v-341.333h227.556l284.444-284.444v382.862l241.777-241.777c-38.116-29.583-80.783-52.907-128-67.129v-117.191c78.507 17.636 149.617 54.044 209.92 102.969l116.053-116.623 72.249 72.249-951.749 951.749zM511.999 881.776l-118.897-118.897 118.897-118.897v237.796z" />
<glyph unicode="&#xe905;" glyph-name="interaction" data-tags="interaction" d="M107.804 337.382c0-18.501 4.626-46.253 32.376-60.129s74.004-41.628 97.131-55.503c27.752-23.127 69.379-69.379 92.505-97.131s50.877-97.131 69.379-124.883c18.501-23.127 60.129-64.754 92.505-74.004s111.006-13.875 148.008-9.251c41.628 4.626 120.258 27.752 157.26 50.877 64.754 41.628 69.379 74.004 87.881 134.133 9.251 32.376 23.127 180.386 23.127 203.513s18.501 180.386 0 235.889c-4.626 18.501-32.376 46.253-55.503 50.877-32.376 4.626-64.754-23.127-64.754-23.127s-32.376 69.379-78.63 74.004c-46.253 4.626-69.379-18.501-69.379-18.501s-27.752 55.503-64.754 60.129-74.004-18.501-74.004-18.501-9.251 217.388-9.251 222.014c-4.626 23.127-27.752 50.877-78.63 50.877s-78.63-37.002-87.881-64.754l-4.626-504.155c0 0-60.129 37.002-106.382 37.002s-78.63-18.501-92.505-37.002c-9.251-13.875-13.875-23.127-13.875-32.376z" />
<glyph unicode="&#xe906;" glyph-name="information" data-tags="information" d="M810.238 383.791c-0.637-23.677-19.199-42.239-42.876-42.876h-170.235v-170.235c-0.637-23.677-19.199-42.239-42.876-42.876h-85.116c-23.039 0.637-41.6 19.837-42.239 42.876v170.873h-170.873c-23.677 0.637-42.239 19.199-42.876 42.876v85.116c0.637 23.039 19.837 41.6 42.876 42.239h170.873v170.873c0.637 23.677 19.199 42.239 42.876 42.876h85.116c23.677-0.637 42.239-19.199 42.876-42.876v-170.873h170.235c23.677-0.637 42.239-19.199 42.876-42.876v-85.116h-0.637zM954.869 682.661c-44.796 77.436-109.434 142.073-186.876 186.876-77.436 45.44-165.756 69.756-255.994 69.117-90.237 0.637-178.551-23.677-255.994-69.117-77.436-44.796-142.073-109.434-186.876-186.876-45.44-77.436-69.756-165.756-69.117-255.994-0.637-90.237 23.039-178.551 68.479-255.994 44.796-77.436 109.434-142.073 187.515-186.876 77.436-45.44 165.756-69.756 255.994-69.117 90.237-0.637 178.551 23.039 255.994 68.479 77.436 44.796 142.073 109.434 186.876 187.515 45.44 77.436 69.756 165.756 69.117 255.994 0.637 90.237-23.677 178.551-69.117 255.994z" />
<glyph unicode="&#xe907;" glyph-name="go-to-scene" data-tags="go-to-scene" d="M1022.982 897.565c-5.040 25.202-30.244 45.365-55.446 40.325-5.040 0-942.575-357.877-942.575-357.877-10.081-5.040-15.121-15.121-20.162-25.202s-5.040-20.162 0-30.244c0-10.081 10.081-20.162 15.121-25.202 10.081-5.040 579.658-10.081 579.658-10.081s-20.162-554.456-10.081-559.496 15.121-15.121 25.202-15.121h10.081c15.121 0 35.283 5.040 40.325 20.162 5.040 0 357.877 952.656 357.877 962.737z" />
<glyph unicode="&#xe908;" glyph-name="restart" data-tags="restart" d="M873.282 788.266c-92.801 92.801-220.16 150.401-361.601 150.401-282.881 0-511.361-229.121-511.361-512s228.48-512 511.361-512c238.721 0 437.76 163.2 494.72 384h-133.121c-52.481-149.12-194.561-256.001-361.601-256.001-211.841 0-384 172.16-384 384s172.16 384 384 384c106.241 0 200.96-44.16 270.080-113.921l-206.081-206.081h448.001v448.001l-150.401-150.401z" />
<glyph unicode="&#xe909;" glyph-name="info" data-tags="info" d="M745.14 54.973c-0.699 25.827-20.941 46.069-46.768 46.768h-46.069v418.813c-1.395 25.827-21.639 46.069-46.768 46.069h-279.209c-25.827 0-46.768-20.941-47.465-46.768v-92.837c0.699-25.827 20.941-46.069 46.768-46.768h46.768v-279.209h-46.069c-25.827-0.699-46.069-20.941-46.768-46.768v-92.837c0.699-25.827 20.941-46.069 46.768-46.768h372.045c25.827 0.699 46.069 20.941 46.768 46.768v93.534zM638.343 924.708c-8.376 9.075-20.242 13.96-32.806 13.96h-185.673c-25.827-0.699-46.069-20.941-46.768-46.768v-139.604c0.699-25.827 20.941-46.069 46.768-46.768h186.372c25.129 1.395 45.371 21.639 46.069 46.768v139.604c0 12.564-5.584 24.43-13.96 32.806z" />
<glyph unicode="&#xe90a;" glyph-name="sound" data-tags="sound" d="M0 597.332v-341.333h227.556l284.444-284.444v910.223l-284.444-284.444h-227.556zM768 426.665c0 100.693-58.027 187.164-142.223 229.263v-457.956c84.196 41.529 142.223 128 142.223 228.693zM625.777 925.581v-117.191c164.409-48.924 284.444-201.387 284.444-381.724s-120.036-332.8-284.444-381.724v-117.191c228.124 51.769 398.223 255.431 398.223 498.916s-170.097 447.147-398.223 498.916z" />
<glyph unicode="&#xe90b;" glyph-name="static-image" data-tags="static-image" d="M311.817 669.859c-18.944 19.455-45.566 30.206-72.701 29.695-56.317 0-102.395-46.078-102.395-102.395s46.078-102.395 102.395-102.395 102.395 46.078 102.395 102.395c0.512 27.135-10.239 53.758-29.695 72.701zM665.595 614.053l-272.885-272.885-85.5 85.5-170.489-170.489v-102.395h750.561v238.583l-221.687 221.687zM950.256 762.526c3.072-3.072 5.12-7.167 5.12-11.775v-648.166c-0.512-9.216-7.68-16.383-16.895-16.895h-852.958c-9.216 0.512-16.383 7.68-16.895 16.895v648.166c0.512 9.216 7.68 16.383 16.895 16.895h852.958c4.608 0 8.703-2.048 11.775-5.12zM998.381 810.653c-15.359 16.383-37.375 25.599-59.902 25.599h-852.958c-22.527 0.512-44.542-8.703-60.414-25.087-16.383-15.872-25.599-37.886-25.087-60.414v-648.166c-0.512-22.527 8.703-44.542 25.087-60.414 15.872-16.383 37.886-25.599 60.414-25.087h852.958c47.102 0 85.5 38.398 85.5 85.5v0 648.166c0.512 22.527-8.703 44.542-25.087 60.414l-0.512-0.512z" />
<glyph unicode="&#xe90c;" glyph-name="copy" data-tags="copy" d="M819.659-85.333h-362.763c-96.431 0-174.494 78.063-174.494 174.494v422.457c0 96.431 78.063 174.494 174.494 174.494h362.763c96.431 0 174.494-78.063 174.494-174.494v-422.457c0-96.431-78.063-174.494-174.494-174.494zM456.897 598.864c-45.919 0-82.655-36.736-82.655-82.655v-422.457c0-45.919 36.736-82.655 82.655-82.655h362.763c45.919 0 82.655 36.736 82.655 82.655v417.865c0 45.919-36.736 82.655-82.655 82.655h-362.763zM121.686 341.716v422.457c0 45.919 36.736 82.655 82.655 82.655h362.763c45.919 0 82.655-36.736 82.655-82.655v-27.551h91.839v27.551c0 96.431-78.063 174.494-174.494 174.494h-362.763c-96.431 0-174.494-78.063-174.494-174.494v-422.457c0-96.431 78.063-174.494 174.494-174.494h27.551v91.839h-27.551c-45.919-4.592-82.655 32.143-82.655 82.655zM759.965 392.228h-238.781c-27.551 0-45.919 18.368-45.919 45.919s18.368 45.919 45.919 45.919h238.781c27.551 0 45.919-18.368 45.919-45.919s-22.96-45.919-45.919-45.919zM759.965 254.47h-238.781c-27.551 0-45.919 18.368-45.919 45.919s18.368 45.919 45.919 45.919h238.781c27.551 0 45.919-18.368 45.919-45.919s-22.96-45.919-45.919-45.919zM759.965 116.713h-238.781c-27.551 0-45.919 18.368-45.919 45.919s18.368 45.919 45.919 45.919h238.781c27.551 0 45.919-18.368 45.919-45.919s-22.96-45.919-45.919-45.919z" />
<glyph unicode="&#xe90d;" glyph-name="paste" data-tags="paste" d="M322.898 938.667h-121.14c-105.917 0-191.678-85.762-191.678-191.678v-463.973c0-90.694 60.462-161.447 141.292-186.533v111.062c-25.299 15.223-40.309 40.309-40.309 75.684v463.759c0 50.385 40.309 90.694 90.694 90.694h211.832c0 0 0 0 5.146 5.146v0c0 50.385-45.454 95.839-95.839 95.839zM822.034 761.996c0 0-45.454 0-65.608 0-20.154 55.532-70.54 95.839-136.148 95.839s-111.062-40.309-131.216-95.839c-20.154 0-65.608 0-65.608 0-105.917 0-191.678-85.762-191.678-191.678v-463.973c0-105.917 85.762-191.678 191.678-191.678h398.58c105.917 0 191.678 85.762 191.678 191.678v459.041c5.146 105.917-85.548 196.61-191.678 196.61zM625.423 782.365c35.377 0 65.608-30.231 65.608-65.608s-30.231-65.608-65.608-65.608c-35.377 0-65.608 30.231-65.608 65.608s25.299 65.608 65.608 65.608zM917.874 101.413c0-50.385-40.309-90.694-90.694-90.694h-403.512c-50.385 0-90.694 40.309-90.694 90.694v463.973c0 30.231 15.223 60.462 40.309 75.684v0c0-70.54 55.532-126.070 126.070-126.070h257.286c70.54 0 126.070 55.532 126.070 126.070v0c20.154-15.223 35.377-45.454 35.377-75.684v-463.973z" />
<glyph unicode="&#xe90e;" glyph-name="first-scene" data-tags="first-scene" d="M511.999 131.242l316.416-190.977-83.968 359.937 279.552 242.176-368.128 31.232-143.872 339.457-143.872-339.457-368.128-31.232 279.552-242.176-83.968-359.937z" />
<glyph unicode="&#xe90f;" glyph-name="edit" data-tags="edit" d="M-0.001 127.971v-213.304h213.304l629.103 629.103-213.304 213.304-629.103-629.103zM1007.362 708.726c22.184 22.184 22.184 58.019 0 80.202l-133.101 133.101c-22.184 22.184-58.019 22.184-80.202 0l-104.092-104.092 213.304-213.304 104.092 104.092z" />
<glyph unicode="&#xe910;" glyph-name="delete" data-tags="delete" d="M170.666 28.444c0-62.577 51.2-113.777 113.777-113.777h455.111c62.577 0 113.777 51.2 113.777 113.777v682.667h-682.667v-682.667zM910.222 881.778h-199.111l-56.889 56.889h-284.444l-56.889-56.889h-199.111v-113.777h796.444v113.777z" />
<glyph unicode="&#xe911;" glyph-name="view" data-tags="view" d="M512 775.758c-232.727 0-431.477-144.756-512-349.091 80.523-204.335 279.273-349.091 512-349.091s431.477 144.756 512 349.091c-80.523 204.335-279.273 349.091-512 349.091zM512 193.94c-128.466 0-232.727 104.262-232.727 232.727s104.262 232.727 232.727 232.727 232.727-104.262 232.727-232.727-104.262-232.727-232.727-232.727zM512 566.303c-77.266 0-139.636-62.371-139.636-139.636s62.371-139.636 139.636-139.636 139.636 62.371 139.636 139.636-62.371 139.636-139.636 139.636z" />
<glyph unicode="&#xe912;" glyph-name="not-first-scene" data-tags="not-first-scene" d="M1024 542.38l-368.128 31.744-143.872 338.944-143.872-339.456-368.128-31.232 279.552-242.176-83.968-359.937 316.416 190.976 316.416-190.976-83.456 359.937 279.040 242.176zM511.999 226.988l-192.512-116.224 51.2 219.136-169.984 147.456 224.256 19.456 87.040 206.336 87.552-206.848 224.256-19.456-169.984-147.456 51.2-219.136-193.024 116.736z" />
<glyph unicode="&#xe913;" glyph-name="dropdown" data-tags="dropdown" d="M0 170.668l512 512 512-512z" />
<glyph unicode="&#xe914;" glyph-name="pin" data-tags="pin" d="M719.144 121.812l-508.091 515.909c0 0 218.87 156.335 336.122 39.084l85.985 85.985v171.97l390.839-390.839h-171.97l-85.985-85.985c117.252-117.252-46.9-336.122-46.9-336.122zM-0.001-81.425l336.122 469.007 132.885-132.885-469.007-336.122z" />
<glyph unicode="&#xe915;" glyph-name="scene-icon" data-tags="scene-icon" d="M312.638 704.113c-66.276 0-120.515-54.087-120.515-120.515 0-66.276 54.087-120.515 120.515-120.515 66.276 0 120.515 54.087 120.515 120.515s-54.087 120.515-120.515 120.515zM312.638 522.044c-33.824 0-60.943 27.12-60.943 60.943s27.729 60.943 60.943 60.943c33.824 0 60.943-27.12 60.943-60.943s-27.12-60.943-60.943-60.943zM996.879 798.27c-21.026 3.962-227.471 46.621-499.43 46.621-234.175 0-448.695-42.66-470.33-46.621-15.54-2.742-27.12-15.693-27.12-31.843v-670.681c0-16.303 12.189-29.101 27.12-31.843 23.006-4.723 259.923-55.459 482.519-55.459 30.471 0 60.334 0.609 90.196 1.828v0c0.305 0 0.609 0 0.762 0 1.067 0 1.981 0 3.047 0.153 0 0 0 0 0 0 188.315 11.122 373.735 48.145 393.237 52.259 14.931 2.742 27.12 15.54 27.12 31.843v671.899c0 15.54-11.58 29.101-27.12 31.843zM596.176 69.997c-28.643-0.609-57.896-1.371-86.54-1.371v0c-184.811 0-385.771 37.175-450.066 50.126v27.12l162.414 153.577 119.753-119.753c7.466-7.466 16.912-10.817 27.12-10.817s20.263 4.723 27.12 12.189l351.186 367.488 217.568-239.507-0.305-191.514c-53.173-10.513-215.13-38.394-368.25-47.536zM964.731 397.72l-187.857 207.664c-7.466 7.466-16.912 12.189-27.729 12.189s-21.026-4.114-27.729-12.189l-352.556-368.25-119.144 119.144c-14.931 14.931-37.937 14.931-53.478 0.609l-136.665-129.2v515.732c60.943 11.58 244.992 41.898 437.877 41.898 224.728 0 407.406-30.471 467.587-41.289v-185.877l-0.305-160.434z" />
<glyph unicode="&#xe916;" glyph-name="close" data-tags="Icon 6 (1)" d="M1024 835.536l-103.131 103.131-408.869-408.869-408.869 408.869-103.131-103.131 408.869-408.869-408.869-408.869 103.131-103.131 408.869 408.869 408.869-408.869 103.131 103.131-408.869 408.869z" />
</font>
</defs>
</svg>
